My Daddy Is In Heaven 2017 Movies 720p HDRip x264 5 1 with Sample ☻rDX☻

seeders: 3 leechers: 0 updated:
Added by teamrDX 7,961 in Movies > HD
Torrent verified . Downloaded 45 times.
Torrent hash: 8f889f95dc0c6e7f7f965088eb8355884586a0f2
0
0
My Daddy's in Heaven (2017)N/A
Runtime N/A

Video Web-DL — 720p — x264
Audio English
Subtitles N/A

Directed by Waymon Boone
Actors Corbin Bernsen, Jim E Chandler, Brandon Firby, Jenn Gotzon


N/A

available as: Web-DL 720p Xvid x264

Description

My Daddy Is In Heaven 2017 Movies 720p HDRip x264 5.1 with Sample ☻rDX☻

:Qpirate: Screen Shots :Qpirate:

http://iphonehosting.eu/2018/4/business/index.html
http://iphonehosting.eu/2018/4/business/1.html
http://iphonehosting.eu/2018/4/business/2.html
http://iphonehosting.eu/2018/4/business/3.html
http://iphonehosting.eu/2018/4/business/4.html

File size                                : 892 MiB
Duration                                 : 1 h 35 min
Overall bit rate                         : 1 309 kb/s
Movie name                               : My Daddy Is In Heaven 2017 Movies 720p HDRip x264 5.1 ☻rDX☻

Video
ID                                       : 2
Format                                   : AVC
Format/Info                              : Advanced Video Codec
Format profile                           : [email protected]
Format settings, CABAC                   : Yes
Format settings, ReFrames                : 4 frames
Codec ID                                 : V_MPEG4/ISO/AVC
Duration                                 : 1 h 35 min
Bit rate                                 : 924 kb/s
Width                                    : 1 280 pixels
Height                                   : 720 pixels
Display aspect ratio                     : 16:9
Frame rate mode                          : Constant
Frame rate                               : 23.976 (24000/1001) FPS
Color space                              : YUV
Chroma subsampling                       : 4:2:0
Bit depth                                : 8 bits
Scan type                                : Progressive
Bits/(Pixel*Frame)                       : 0.042
Stream size                              : 612 MiB (69%)
Title                                    : ☻rDX☻
Writing library                          : x264

Audio
ID                                       : 1
Format                                   : AC-3
Format/Info                              : Audio Coding 3
Mode extension                           : CM (complete main)
Format settings, Endianness              : Big
Codec ID                                 : A_AC3
Duration                                 : 1 h 35 min
Bit rate mode                            : Constant
Bit rate                                 : 384 kb/s
Channel(s)                               : 6 channels
Channel positions                        : Front: L C R, Side: L R, LFE
Sampling rate                            : 48.0 kHz
Frame rate                               : 31.250 FPS (1536 spf)
Bit depth                                : 16 bits
Compression mode                         : Lossy
Delay relative to video                  : -42 ms
Stream size                              : 262 MiB (29%)
Title                                    : ☻rDX☻
Default                                  : Yes
Forced                                   : No