Rampage 2018 720p NEW HDCAM X264 HQMic LLG

seeders: 27 leechers: 11 updated:
Added by LifeLong1 138 in Movies > Cam
Torrent unverified . Downloaded 650 times.
Torrent hash: 8394c7dfb862e1e5b26007bba8837eb2b44acc5d
0
0
Rampage (2018)PG-13
Runtime 107 min

Video Other — 720p — x264
Audio English
Subtitles N/A

Directed by Brad Peyton
Actors Dwayne Johnson, Jeffrey Dean Morgan, Malin Akerman, Joe Manganiello


Primatologist Davis Okoye shares an unshakable bond with George, the extraordinarily intelligent gorilla who has been in his care since birth. But a rogue genetic experiment gone awry ...

available as: Cam Other 720p Xvid x264
Be aware: This is a Unverified Upload - KAT can not take responsibility for any offsite links added to torrents Description.

Description

******************************Screenshots:********************

http://picserver4u.com/d/0491.html

http://picserver4u.com/d/0492.html

http://picserver4u.com/d/0493.html

http://picserver4u.com/d/0494.html

http://picserver4u.com/d/0495.html

**************************************************************

Complete name                            : Rampage.2018.720p.NEW.HDCAM.X264.HQMic.LLG.mp4
Format                                   : MPEG-4
Format profile                           : Base Media
Codec ID                                 : isom (isom/iso2/avc1/mp41)
File size                                : 1.14 GiB
Duration                                 : 1 h 40 min
Overall bit rate                         : 1 636 kb/s
Writing application                      : Lavf57.56.101

Video
ID                                       : 1
Format                                   : AVC
Format/Info                              : Advanced Video Codec
Format profile                           : [email protected]
Format settings                          : CABAC / 4 Ref Frames
Format settings, CABAC                   : Yes
Format settings, RefFrames               : 4 frames
Codec ID                                 : avc1
Codec ID/Info                            : Advanced Video Coding
Duration                                 : 1 h 40 min
Bit rate                                 : 1 500 kb/s
Width                                    : 1 280 pixels
Height                                   : 608 pixels
Display aspect ratio                     : 2.105
Frame rate mode                          : Constant
Frame rate                               : 23.976 (23976/1000) FPS
Color space                              : YUV
Chroma subsampling                       : 4:2:0
Bit depth                                : 8 bits
Scan type                                : Progressive
Bits/(Pixel*Frame)                       : 0.080
Stream size                              : 1.05 GiB (92%)

Audio
ID                                       : 2
Format                                   : MPEG Audio
Format version                           : Version 1
Format profile                           : Layer 3
Format settings                          : Joint stereo / MS Stereo
Codec ID                                 : mp4a-6B
Duration                                 : 1 h 40 min
Bit rate mode                            : Constant
Bit rate                                 : 128 kb/s
Channel(s)                               : 2 channels
Sampling rate                            : 44.1 kHz
Compression mode                         : Lossy
Stream size                              : 91.6 MiB (8%)
Writing library                          : LAME3.99.5
Default                                  : Yes
Alternate group                          : 1